2011-04-07:

Recon 2010 - video

recon:lecture:syndicate wars:swars
Wczoraj zostało opublikowane nagranie z mojej i Unavowed'a prelekcji o portowaniu Syndicate Wars na współczesne systemy. Zachęcam do rzucenia okiem :)

Recon 2010 - Syndicate Wars Port: How to port a DOS game to modern systems - Gynvael Coldwind and Unavowed

Zachęcam również do rzucenia okiem na (dostępny tylko po angielskiej stronie lustra) post o samym procesie portowania, oraz na samą stronę projeku Swars.

I tyle,

P.S. W zasadzie chciałem, żeby prezentacja nosiła tytuł "Syndicate Wars Port Tale - To DOS and back again", ale Unavowed zwrócił uwagę, że pewien gość już używa podobnej konwencji nazewnictwa ;p

Comments:

2011-04-07 06:47:51 = Jurgi Filodendryta
{
Miła wiadomość, zaraz uaktualnię swój wpis na ten temat.
Nie mógłbyś wrzucać nagrań (dodatkowo) na YT? Ma tę zaletę, że można sobie wybrać rozdzielczość, co dla posiadaczy wolnych łącz w PL jest nieocenione… Obecna wersja niestety każde dwie sekundy ładuje mi przez minutę…
}
2011-04-07 07:52:38 = Gynvael Coldwind
{
@Jurgi
Hey ;)
Wrzuce potem na YT - najpierw też muszę to ściągnąć i przekonwertować / pociąć ;)
}
2011-04-07 10:05:34 = mulander
{
Fantastycznie. Będzie co oglądać po powrocie z podróży ;)
}
2011-04-08 20:20:09 = przemoc
{
Dzięki za info, Gyn.

Nie tylko strumień kuleje, ale i pliki wideo do pobrania - transfery na poziomie ~50 KB/s. Nic, trzeba przecierpieć.

Info dla potencjalnie zainteresowanych (dlaczego nie umieszczają takich informacji na stronie, pojęcia nie mam...) via ffmpeg:

MOV (858 MB):
Duration: 00:45:39.13, start: 0.000000, bitrate: 2627 kb/s
Stream #0.0(eng): Audio: pcm_s16le, 48000 Hz, 2 channels, s16, 1536 kb/s
Stream #0.1(eng): Video: h264, yuv420p, 640x480, 1088 kb/s, 29.97 fps, 29.97 tbr, 2997 tbn, 5994 tbc

MPEG4 (192 MB):
Duration: 00:45:39.13, start: 0.000000, bitrate: 195 kb/s
Stream #0.0(eng): Video: h264, yuv420p, 320x240, 511 kb/s, 29.97 fps, 29.97 tbr, 2997 tbn, 59.94 tbc
Stream #0.1(eng): Audio: aac, 48000 Hz, stereo, s16, 71 kb/s

OGV (81 MB):
Duration: 00:45:39.13, start: 0.000000, bitrate: 248 kb/s
Stream #0.0: Video: theora, yuv420p, 400x304, 29.97 fps, 29.97 tbr, 29.97 tbn, 29.97 tbc
Stream #0.1: Audio: vorbis, 44100 Hz, stereo, s16, 128 kb/s

Swoją drogą nie było ich stać na jakieś normalne HD?
}
2011-04-09 18:26:17 = Jurgi
{
@Gyn — Ciąć już nie trzeba, YT dopuszcza już dłuższe filmy (ale nie jestem pewien, czy włączono już tę funkcję dla wszystkich użytkowników, dla mnie już tak).
}
2011-04-10 00:57:05 = mulander
{
@Jurgi afaik dowolna długość jest dostępna dla kont partnerskich - dysponujesz takim kontem czy limit został zdjęty bezwzględnie?
}

Add a comment:

Nick:
URL (optional):
Math captcha: 8 ∗ 5 + 9 =